+ porno-black.org »  :::: Bollywood Zone » Bollywood Movies (Original Rips) » HEVC / H.265 Releases
|- Haseena Parker (2017) 1CD DvDRip HEVC x265 AAC 5.1 -ShahidHasanzai 450MB

Haseena Parker (2017) 1CD DvDRip HEVC x265 AAC 5.1 -ShahidHasanzai 450MB

0 Members and 1 Guest are viewing this topic.

February 09, 2018, 06:56:54 PM
  • Addic7ed
  • Royal Member
  • ****
  • Topic Author
  • Thank You: 391
  • Reputation: 140
  • Activity:
    100%
  • Posts: 942
  • Topics: 598
  • Join Date: May 2017
  • #Me


 :plot:
Quote
General
Complete name               : Haseena Parker 2017 1CD DvDRip HEVC x265 AAC 5.1 -ShahidHasanzai\Haseena Parker 2017 1CD DvDRip HEVC x265 AAC 5.1 -ShahidHasanzai.mkv
Format                      : Matroska
Format version              : Version 4 / Version 2
File size                   : 436 MiB
Duration                    : 2 h 2 min
Overall bit rate            : 496 kb/s
Movie name                  : ShahidHasanzai
Encoded date                : UTC 2018-02-08 19:08:34
Writing application         : mkvmerge v20.0.0 ('I Am The Sun') 64-bit
Writing library             : libebml v1.3.5 + libmatroska v1.4.8

Video
ID                          : 1
Format                      : HEVC
Format/Info                 : High Efficiency Video Coding
Format profile              : Main [email protected]@Main
Codec ID                    : V_MPEGH/ISO/HEVC
Duration                    : 2 h 2 min
Bit rate                    : 367 kb/s
Width                       : 640 pixels
Height                      : 272 pixels
Display aspect ratio        : 2.35:1
Frame rate mode             : Constant
Frame rate                  : 23.976 (24000/1001) FPS
Color space                 : YUV
Chroma subsampling          : 4:2:0
Bit depth                   : 10 bits
Bits/(Pixel*Frame)          : 0.088
Stream size                 : 322 MiB (74%)
Title                       : ShahidHasanzai
Writing library             : x265 2.6+37-1949157705ce:[Windows][GCC 7.3.0][64 bit] 10bit
Language                    : English
Default                     : Yes
Forced                      : No

Audio
ID                          : 2
Format                      : AAC
Format/Info                 : Advanced Audio Codec
Format profile              : LC
Codec ID                    : A_AAC-2
Duration                    : 2 h 2 min
Bit rate                    : 128 kb/s
Channel(s)                  : 6 channels
Channel positions           : Front: L C R, Side: L R, LFE
Sampling rate               : 48.0 kHz
Frame rate                  : 46.875 FPS (1024 SPF)
Compression mode            : Lossy
Delay relative to video     : 9 ms
Stream size                 : 112 MiB (26%)
Title                       : ShahidHasanzai
Language                    : Hindi
Default                     : Yes
Forced                      : No

Menu #1
00:00:00.000                : en:Chapter 1
00:02:00.000                : en:Chapter 2
00:11:27.000                : en:Chapter 3
00:19:06.000                : en:Chapter 4
00:24:13.500                : en:Chapter 5
00:29:52.000                : en:Chapter 6
00:33:26.500                : en:Chapter 7
00:39:33.500                : en:Chapter 8
00:40:52.000                : en:Chapter 9
00:46:06.000                : en:Chapter 10
00:57:32.500                : en:Chapter 11
01:09:31.000                : en:Chapter 12
01:25:50.500                : en:Chapter 13
01:41:02.000                : en:Chapter 14
01:49:04.500                : en:Chapter 15
01:54:15.000                : en:Chapter 16
01:59:32.000                : en:Chapter 17

Menu #2
00:00:00.054                : en:00:00:00.054

 :ss: :ss:







 :download: :download:






Share this topic on FacebookShare this topic on GoogleShare this topic on MySpaceShare this topic on TwitterShare this topic on Yahoo




Tags: new 
 

Related Topics




Back to top