+ porno-black.org »  :::: Bollywood Zone » Bollywood Movies (Original Rips) » HEVC / H.265 Releases
|- Jab We Met (2007) 1080p Bluray 10bit HEVC x265 5.1 AAC 3.50GB - Natty

Jab We Met (2007) 1080p Bluray 10bit HEVC x265 5.1 AAC 3.50GB - Natty

0 Members and 1 Guest are viewing this topic.

September 28, 2017, 05:49:59 PM
  • ♫♫♣ B૦ՐՈ T૦ H૯Նƿ ♣♫♫
  • Global Moderator
  • Legend Member
  • *****
  • Topic Author
  • Thank You: 1093
  • Reputation: 725
  • Activity:
    0.4%
  • Country: dk
  • Posts: 2712
  • Topics: 1192
  • Join Date: Jan 2013
  • ♠§§ Dσп'т Tαʟκ Jυƨт Acт §§ Dσп'т Sαч Jυƨт Sнσш §§♠
:title:
Jab We Met (2007) 1080p Bluray 10bit HEVC x265 5.1 AAC 3.50GB - Natty




:info:
General
Complete name : Jab We Met 2007 1080p Bluray 10bit x265 5.1 AAC HEVC Natty.mkv
Format : Matroska
Format version : Version 4 / Version 2
File size : 3.47 GiB
Duration : 2 h 23 min
Overall bit rate : 3 456 kb/s
Encoded date : UTC 2017-09-26 03:35:57
Writing application : mkvmerge v15.0.0 ('Duel with the Devil') 64-bit
Writing library : libebml v1.3.5 + libmatroska v1.4.5
Writing frontend : Natty

Video
ID : 1
Format : HEVC
Format/Info : High Efficiency Video Coding
Format profile : Main [email protected]@Main
Codec ID : V_MPEGH/ISO/HEVC
Duration : 2 h 23 min
Bit rate : 3 003 kb/s
Width : 1 920 pixels
Height : 802 pixels
Display aspect ratio : 2.40:1
Frame rate mode : Constant
Frame rate : 24.000 FPS
Color space : YUV
Chroma subsampling : 4:2:0
Bit depth : 10 bits
Bits/(Pixel*Frame) : 0.081
Stream size : 3.01 GiB (87%)
Default : Yes
Forced : No
Color range : Full
Color primaries : BT.709
Transfer characteristics : BT.709
Matrix coefficients : BT.709

Audio
ID : 2
Format : AAC
Format/Info : Advanced Audio Codec
Format profile : LC
Codec ID : A_AAC
Duration : 2 h 23 min
Bit rate : 434 kb/s
Channel(s) : 6 channels
Channel positions : Front: L C R, Side: L R, LFE
Sampling rate : 48.0 kHz
Frame rate : 46.875 FPS (1024 SPF)
Compression mode : Lossy
Delay relative to video : 20 ms
Stream size : 446 MiB (13%)
Language : Hindi
Default : No
Forced : No

Text
ID : 3
Format : PGS
Muxing mode : zlib
Codec ID : S_HDMV/PGS
Codec ID/Info : Picture based subtitle format used on BDs/HD-DVDs
Duration : 2 h 21 min
Bit rate : 43.5 kb/s
Count of elements : 3153
Stream size : 43.9 MiB (1%)
Language : English
Default : No
Forced : No

:ss:







:download:











Share this topic on FacebookShare this topic on GoogleShare this topic on MySpaceShare this topic on TwitterShare this topic on Yahoo

« Last Edit: September 28, 2017, 08:14:47 PM by ♥[--K4Krish--]♥ »



If U like any post, then say thanks 2 d uploader by posting in his topic, adding thanks & reputes 2 him.:)

Thanks given by:


Tags:
 

Related Topics

  Subject / Started by Replies Last post
10 Replies
1262 Views
Last post April 14, 2018, 01:55:45 PM
by Jatkingdom007
2 Replies
524 Views
Last post January 31, 2018, 09:05:01 PM
by Changezi
3 Replies
774 Views
Last post February 22, 2018, 06:15:22 AM
by shahdk
1 Replies
575 Views
Last post February 08, 2018, 10:55:58 AM
by JokerRonaldo
1 Replies
492 Views
Last post February 10, 2018, 09:01:40 AM
by Changezi



Back to top