+ porno-black.org »  :::: Bollywood Zone » Bollywood Movies (Original Rips)
|- BAAGHI 2 (2018) HINDI 720P WEBHD RIP X264 AVC AAC 1.4GB [TEAM JIO] EXCLUSIVE

BAAGHI 2 (2018) HINDI 720P WEBHD RIP X264 AVC AAC 1.4GB [TEAM JIO] EXCLUSIVE

0 Members and 2 Guests are viewing this topic.

April 17, 2018, 11:18:08 AM
  • Legend
  • Legend Member
  • ***
  • Topic Author
  • Thank You: 724
  • Reputation: 608
  • Activity:
    10.8%
  • Country: pm
  • Posts: 2243
  • Topics: 818
  • Join Date: Jan 2013
  • Expertises:
  • Bollywood Movies
  • Hindi PC Videos
  • PC Applications


:info:

Code: [Select]
General
Format : Matroska
Format version : Version 4 / Version 2
File size : 1.45 GiB
Duration : 2 h 23 min
Overall bit rate : 1 451 kb/s
Video
ID : 1
Format : AVC
Format/Info : Advanced Video Codec
Format profile : [email protected]
Format settings : CABAC / 4 Ref Frames
Format settings, CABAC : Yes
Format settings, RefFrames : 4 frames
Codec ID : V_MPEG4/ISO/AVC
Duration : 2 h 23 min
Bit rate : 1 300 kb/s
Width : 1 280 pixels
Height : 540 pixels
Display aspect ratio : 2.40:1
Frame rate mode : Constant
Frame rate : 15.000 FPS
Color space : YUV
Chroma subsampling : 4:2:0
Bit depth : 8 bits
Scan type : Progressive
Bits/(Pixel*Frame) : 0.125
Stream size : 1.29 GiB (89%)
Language : Hindi
Default : Yes
Forced : No
Color range : Limited
Color primaries : BT.709
Transfer characteristics : BT.709
Matrix coefficients : BT.709
Audio
ID : 2
Format : AAC
Format/Info : Advanced Audio Codec
Format profile : LC
Codec ID : A_AAC-2
Duration : 2 h 23 min
Bit rate : 160 kb/s
Channel(s) : 2 channels
Channel positions : Front: L R
Sampling rate : 44.1 kHz
Frame rate : 43.066 FPS (1024 SPF)
Compression mode : Lossy
Delay relative to video : -23 ms
Stream size : 164 MiB (11%)
Language : Hindi
Default : Yes
Forced : No

:ss:








:download:












Share this topic on FacebookShare this topic on GoogleShare this topic on MySpaceShare this topic on TwitterShare this topic on Yahoo





Thanks given by:


April 24, 2018, 08:40:46 PM
Reply #1
  • Senior Member
  • ***
  • Thank You: 0
  • Reputation: 0
  • Activity:
    5.8%
  • Posts: 224
  • Topics: 3
  • Join Date: Oct 2013
  • ShareSpark Member

Tags:
 

Related Topics




Back to top